#TITLE:Final Boss;
#SUBTITLE:Sonic & Knuckles;
#ARTIST:Sonic Team;
#TITLETRANSLIT:;
#SUBTITLETRANSLIT:;
#ARTISTTRANSLIT:;
#CREDIT:;
#BANNER:S&K Final Boss.jpg;
#BACKGROUND:S&K Final Boss-bg.jpg;
#LYRICSPATH:;
#CDTITLE:!macTitle.png;
#MUSIC:S&K Final Boss.mp3;
#OFFSET:-0.155;
#SAMPLESTART:38.502;
#SAMPLELENGTH:12.000;
#SELECTABLE:YES;
#BPMS:0.000=99.030,26.500=198.060,121.000=148.910,121.750=99.760,122.250=50.610,122.375=198.060,156.000=148.910,156.250=99.760,156.313=50.610,158.000=198.060,252.500=148.910,253.250=99.760,253.750=50.610,253.875=198.060,287.500=148.910,287.750=99.760,287.833=50.609;
#STOPS:122.375=0.416
,253.875=0.416
;
#BGCHANGES:;
// cache tags:
#FIRSTBEAT:0.000;
#LASTBEAT:289.000;
#SONGFILENAME:Songs/Music V.I.P ^_^/Final Boss (MacGravel)/S&K Final Boss.sm;
#HASMUSIC:1;
#HASBANNER:1;
#MUSICLENGTH:100.576;
// end cache tags

//---------------dance-single - ----------------
#NOTES:
     dance-single:
     :
     Hard:
     10:
     1.000,1.000,1.000,0.527,0.418,554.000,128.000,53.000,0.000,0.000:

0002
0000
0000
2003
,
3200
0000
0320
0000
,
0000
0000
0000
0000
0000
0000
0000
0000
0031
0010
0100
1000
0001
0010
0100
1000
0001
0010
0100
1000
0001
0010
0100
1000
0001
0010
0100
1000
0001
0010
0100
1000
,
0002
0000
0000
0000
0000
0000
0000
0000
0000
0000
0000
0000
0100
0000
0000
0000
0000
0000
0000
0000
0000
0010
0000
0000
2003
0000
0000
0000
0000
0000
0000
0000
,
3200
0000
0000
0000
0010
0000
0000
0000
0000
0000
0000
0000
0000
0010
0000
0000
0320
0000
0000
0000
0000
0000
0000
0000
0000
0000
0000
0000
0001
0000
0000
0000
,
0000
0000
0000
0000
0000
0001
0000
0000
0031
1000
0010
0100
0001
1000
0010
0100
0001
1000
0010
0100
0001
1000
0010
0100
0001
1000
0010
0100
0001
1000
0010
0100
,
0002
0000
0000
0000
0000
0000
0000
0000
0000
0000
0000
0000
0013
0100
1000
0100
0010
0000
0001
0000
0200
0000
0000
0000
0300
0000
0000
0000
0110
0000
0000
0000
,
0000
0002
0103
1010
0000
0002
0003
0110
,
1000
0200
1300
0011
0000
0200
0300
1001
,
0000
0200
1300
1010
0000
0002
0003
0110
,
0001
0020
0031
1010
0000
0200
0300
0110
,
0000
0020
0130
1010
0000
2000
3000
0011
,
0100
0020
0130
1100
0000
0002
0003
1010
,
0000
2000
3001
0110
0000
0002
0003
0110
,
1000
0020
1030
1010
0000
0100
1000
1010
,
0100
1000
0010
0101
0010
0200
0300
0011
,
0100
0002
0103
1010
0000
0100
1000
1010
,
0100
1000
0010
0101
1000
0020
0030
1100
,
0001
0020
0031
1100
0000
0001
1000
1010
,
0100
1000
0010
0101
0010
0100
0001
0110
,
0001
0010
0100
1010
0100
1000
0010
0101
,
0010
1000
0001
1010
0100
0010
0001
0110
,
0001
1000
0010
1100
0010
0001
0100
1001
,
0100
0010
1100
1000
0101
1000
0010
0101
,
1000
0000
0001
0000
1100
0000
0110
0000
0011
0000
0001
0100
0010
1000
0001
0000
,
0000
0000
0001
1000
0010
0100
0001
0000
0100
0000
0001
0000
1000
0000
1001
0000
,
1001
0000
1000
0100
0010
0100
1000
0000
0000
0000
0001
0010
0100
0010
0001
0000
,
1000
0000
0010
0000
1000
0000
0110
0000
0110
0000
0001
0010
0001
0010
0001
0000
,
0000
0000
1000
0100
1000
0100
1000
0000
0010
0000
0100
0000
1000
0000
0011
0000
,
0011
0000
0001
1000
0001
0100
0001
0000
0000
0000
0100
0001
0100
0010
0100
0000
,
0001
0000
0000
0000
0010
0000
0000
0000
0100
0000
0000
1000
0000
0000
0100
0000
0010
0000
0001
1000
0000
0000
0000
0000
0100
0000
0000
0000
0000
0000
0000
0000
,
1001
0000
0010
0001
0101
1000
0000
0010
,
0101
1000
0100
0010
1001
0100
0010
0000
,
0101
0000
0001
1000
1010
0010
0000
1000
,
0101
1000
0010
0100
1001
0000
0010
1000
,
0101
1000
0010
1000
1100
0010
0100
0001
,
0110
0001
0010
0100
0011
0100
1000
0010
,
1001
0010
1000
0100
0011
0100
0010
0001
,
1010
0100
1000
0010
1100
0000
1001
0110
,
2002
0000
0000
0000
0000
0003
0000
3001
0200
0000
0300
0000
1010
0000
0000
0000
,
0200
0301
0011
0000
0200
0300
1010
0001
,
2000
3001
0110
0000
2000
3000
0101
0000
,
2000
3100
0011
0000
0200
0300
1010
0100
,
0020
0130
0011
0000
2000
3000
1010
0000
,
0020
0031
1100
0000
0002
0003
0110
1000
,
0020
1030
1001
0000
0200
0300
0011
0000
,
0002
0103
1010
0000
0200
0300
1010
0100
,
0020
0130
0011
0000
0001
0010
1100
0010
,
0100
0001
0011
1000
0200
0300
1010
1000
,
0020
1030
0011
0000
0010
0100
0011
0010
,
0100
1000
0011
0100
0200
0300
0011
0100
,
2000
3100
0110
0000
0100
0001
1100
0010
,
1000
0001
1100
0001
1000
0100
0011
1000
,
0001
0010
1100
0001
0100
1000
0110
0001
,
0100
0010
0110
1000
0010
0100
0011
1000
,
0010
0100
0011
1000
0010
0100
0011
1000
,
0100
0110
0001
0011
0100
1000
0110
0001
,
0100
0000
0110
0000
1001
0000
1100
0000
1000
0100
0010
0001
1000
0000
0000
0000
,
0001
0010
0100
1000
0001
0000
0100
0000
0001
0000
0010
0000
0101
0000
0101
0000
,
0010
0100
0010
0100
0010
0000
0000
0000
0100
0010
0100
0010
0100
0000
0001
0000
,
1000
0000
0010
0000
1100
0000
1100
0000
0001
0010
0100
0010
0001
0000
0000
0000
,
1000
0100
0010
0100
1000
0000
0001
0000
0010
0000
0100
0000
0110
0000
0110
0000
,
0001
0010
0001
0100
0001
0000
0000
0000
1000
0010
1000
0001
1000
0000
0010
0000
,
1000
0000
0000
0000
0001
0000
0000
1000
0000
0000
0010
0000
0100
0000
0001
1000
0000
0000
0000
0000
0010
0000
0000
0000
0000
0000
0000
0000
0101
0000
0000
0000
,
0000
1000
0001
0011
0100
0000
1000
0011
,
0100
0010
1000
0101
0010
1000
0000
0011
,
0000
0001
0100
1100
1000
0000
0100
0011
,
0100
1000
0010
0101
0000
1000
0100
0011
,
0100
1000
0100
0110
1000
0010
0001
1010
,
0001
1000
0010
1001
0010
0100
1000
0101
,
1000
0100
0010
1001
0010
1000
0001
1100
,
0010
0100
1000
0110
0000
0011
1100
0022
,
0000
0033
0000
0000
;
